منتدى التحميل بالتورنت العربي
 
الرئيسيةالرئيسية  افلام اجنبية توافلام اجنبية تو  اليوميةاليومية  س .و .جس .و .ج  بحـثبحـث  قائمة الاعضاءقائمة الاعضاء  المجموعاتالمجموعات  التسجيلالتسجيل  دخولدخول  
عضاء و زوار منتدانا الكرام ندعوكم لزيارة موقعنا الجديد http://www.info-lak.com حيت ستجدون كل ما تحتاجون اليه ان شاء الله.و ان كنت ملم بوضع المواضيع فمرحبا بك مشرفا معنا كما اننا وضعنا استراتيجية لتربح المال من مواضيعك بعيدا عن انانية المواقع العربية التي تستغل الاعضاء ابشع استغلال . للمزيد من المعلومات haf_-net@hotmail.com

إرسال موضوع جديد   إرسال مساهمة في موضوعشاطر | 
 

 فيلم Dragon Lore Curse Of The Shadow 2013

استعرض الموضوع السابق استعرض الموضوع التالي اذهب الى الأسفل 
كاتب الموضوعرسالة
Admin
Admin


عدد المساهمات : 332
تاريخ التسجيل : 21/03/2013

مُساهمةموضوع: فيلم Dragon Lore Curse Of The Shadow 2013   الثلاثاء يونيو 04, 2013 11:43 am

فيلم Dragon Lore Curse Of The Shadow 2013
=============================

=============================
A secret cabal, The Shadow, works to bring about the return of Goth Azul - the Undead God - in the rich world of SAGA, populated by elves, orcs, dwarves and dragons.



Director:
John Lyde

Writers:
Jason Faller, Kynan Griffin

Stars:
Danielle Chuchran, Richard McWilliams, Paul D. Hunt

Genres:
Action | Fantasy

Country:
USA

Language:
English



Format : AVI
Format/Info : Audio Video Interleave
File size : 694 MiB
Duration : 1h 45mn
Overall bit rate : 922 Kbps

Video
ID : 0
Format : MPEG-4 Visual
Format profile : Advanced Simple@L5
Format settings, BVOP : 2
Format settings, QPel : No
Format settings, GMC : No warppoints
Format settings, Matrix : Default (H.263)
Codec ID : XVID
Codec ID/Hint : XviD
Duration : 1h 45mn
Bit rate : 788 Kbps
Width : 640 pixels
Height : 352 pixels
Display aspect ratio : 16:9
Frame rate : 23.976 fps
Color space : YUV
Chroma subsampling : 4:2:0
Bit depth : 8 bits
Scan type : Progressive
Compression mode : Lossy
Bits/(Pixel*Frame) : 0.146
Stream size : 593 MiB (85%)
Writing library : XviD 1.2.1 (UTC 2008-12-04)

Audio
ID : 1
Format : MPEG Audio
Format version : Version 1
Format profile : Layer 3
Mode : Joint stereo
Mode extension : MS Stereo
Codec ID : 55
Codec ID/Hint : MP3
Duration : 1h 45mn
Bit rate mode : Constant
Bit rate : 128 Kbps
Channel(s) : 2 channels
Sampling rate : 48.0 KHz
Compression mode : Lossy
Stream size : 96.3 MiB (14%)
Alignment : Aligned on interleaves
Interleave, duration : 167 ms (4.00 video frames)
Interleave, preload duration : 216 ms
Title : encounters-scthshca_720p - [1] English_audio
Writing library : LAME3.99r
Encoding settings : -m j -V 4 -q 2 -lowpass 17 -b 128
===========================================
حمل ملف التورنت == dragon.lore.curse.of.the.shadow.2013.brrip.xvid.playxd ==



=================================================================================================
=================================================================================================
ملف تورنت dragon.lore.curse.of.the.shadow.2013.brrip.x264.aac.offline
------------------------------------------------------------------------------------------------
Release Name: Dragon.Lore.Curse.of.the.Shadow.2013.BRRip.x264.AAC-OFFLiNE
Size: 1.41 GB
Video: MP4 | 720×400 | 1 586 Kbps
Audio: English | AAC | 345 kbps
Runtime: 1h 45mn
Size: 1.41 GB
Video: MP4 | 720×400 | 1 586 Kbps
Audio: English | AAC | 345 kbps
Runtime: 1h 45mn
===========================================
حمل ملف التورنت == Dragon.Lore.Curse.of.the.Shadow.2013.BRRip.x264.AAC-OFFLiNE ==



================================================================================================
================================================================================================
ملف تورنت dragon.lore.curse.of.the.shadow.2013.720p.bluray.x264.encounters
--------------------------------------------------------------------------------------------------------------
RELEASE DATE....: 01.06.2013
STORE DATE......: 03.06.2013
CINE DATE.......: -
RUNTIME.........: 01:45:13
SOURCE..........: BLURAY (1:1,78)
VIDEO...........: 1280x720 (crf-20 @ 2722)
SUBS............: -
AUDIO...........: English DTS 5.1 @ 1509
======================================
حمل ملف التورنت == ==

============================================================================================
فرجة ممتعة
---------------
الرجوع الى أعلى الصفحة اذهب الى الأسفل
معاينة صفحة البيانات الشخصي للعضو http://skystar.forumaroc.net
 
فيلم Dragon Lore Curse Of The Shadow 2013
استعرض الموضوع السابق استعرض الموضوع التالي الرجوع الى أعلى الصفحة 
صفحة 1 من اصل 1
 مواضيع مماثلة
-
» un peu plus sur dragon ball
» 20 بالنسبه لكأس العالم للقارات القادمه انشاء الله
» الفيفا تلزم مصر بتطبيق دوري المحترفين 2012-2013
» أفًـضِـل 100 مـًغـْنـيً كـًـْورٍي ~

صلاحيات هذا المنتدى:تستطيع الرد على المواضيع في هذا المنتدى
SKYSTAR ARAB TORRENT :: SKYSTAR FILMS TORRENT :: افلام اجنبية تورنت-
إرسال موضوع جديد   إرسال مساهمة في موضوعانتقل الى: