منتدى التحميل بالتورنت العربي
 
الرئيسيةالرئيسية  افلام اجنبية توافلام اجنبية تو  اليوميةاليومية  س .و .جس .و .ج  بحـثبحـث  قائمة الاعضاءقائمة الاعضاء  المجموعاتالمجموعات  التسجيلالتسجيل  دخولدخول  
عضاء و زوار منتدانا الكرام ندعوكم لزيارة موقعنا الجديد http://www.info-lak.com حيت ستجدون كل ما تحتاجون اليه ان شاء الله.و ان كنت ملم بوضع المواضيع فمرحبا بك مشرفا معنا كما اننا وضعنا استراتيجية لتربح المال من مواضيعك بعيدا عن انانية المواقع العربية التي تستغل الاعضاء ابشع استغلال . للمزيد من المعلومات haf_-net@hotmail.com

إرسال موضوع جديد   إرسال مساهمة في موضوعشاطر | 
 

 فيلم Devils Of War 2013

استعرض الموضوع السابق استعرض الموضوع التالي اذهب الى الأسفل 
كاتب الموضوعرسالة
Admin
Admin


عدد المساهمات : 332
تاريخ التسجيل : 21/03/2013

مُساهمةموضوع: فيلم Devils Of War 2013   الأربعاء يونيو 05, 2013 11:29 am

فيلم Devils Of War 2013
===============

===============
Format : AVI
Format/Info : Audio Video Interleave
File size : 699 MiB
Duration : 1h 14mn
Overall bit rate : 1 302 Kbps
Writing library : VirtualDub build 32842/release

Video
ID : 0
Format : MPEG-4 Visual
Format profile : Advanced Simple@L5
Format settings, BVOP : 2
Format settings, QPel : No
Format settings, GMC : No warppoints
Format settings, Matrix : Default (H.263)
Muxing mode : Packed bitstream
Codec ID : XVID
Codec ID/Hint : XviD
Duration : 1h 14mn
Bit rate : 1 165 Kbps
Width : 640 pixels
Height : 352 pixels
Display aspect ratio : 16:9
Frame rate : 23.976 fps
Color space : YUV
Chroma subsampling : 4:2:0
Bit depth : 8 bits
Scan type : Progressive
Compression mode : Lossy
Bits/(Pixel*Frame) : 0.216
Stream size : 625 MiB (89%)
Writing library : XviD 1.2.0.dev47 (UTC 2006-11-01)

Audio
ID : 1
Format : MPEG Audio
Format version : Version 1
Format profile : Layer 3
Codec ID : 55
Codec ID/Hint : MP3
Duration : 1h 14mn
Bit rate mode : Constant
Bit rate : 128 Kbps
Channel(s) : 2 channels
Sampling rate : 44.1 KHz
Compression mode : Lossy
Stream size : 68.7 MiB (10%)
Alignment : Split accross interleaves
Interleave, duration : 42 ms (1.00 video frame)
Interleave, preload duration : 500 ms
Writing library : LAME3.99r
Encoding settings : -m s -V 4 -q 3 -lowpass 17 -b 128
===============
حمل ملف التورنت




===============



===============
فرجة ممتعة
----------------
الرجوع الى أعلى الصفحة اذهب الى الأسفل
معاينة صفحة البيانات الشخصي للعضو http://skystar.forumaroc.net
 
فيلم Devils Of War 2013
استعرض الموضوع السابق استعرض الموضوع التالي الرجوع الى أعلى الصفحة 
صفحة 1 من اصل 1
 مواضيع مماثلة
-
» 20 بالنسبه لكأس العالم للقارات القادمه انشاء الله
» الفيفا تلزم مصر بتطبيق دوري المحترفين 2012-2013

صلاحيات هذا المنتدى:تستطيع الرد على المواضيع في هذا المنتدى
SKYSTAR ARAB TORRENT :: SKYSTAR FILMS TORRENT :: افلام اجنبية تورنت-
إرسال موضوع جديد   إرسال مساهمة في موضوعانتقل الى: