منتدى التحميل بالتورنت العربي
 
الرئيسيةالرئيسية  افلام اجنبية توافلام اجنبية تو  اليوميةاليومية  س .و .جس .و .ج  بحـثبحـث  قائمة الاعضاءقائمة الاعضاء  المجموعاتالمجموعات  التسجيلالتسجيل  دخولدخول  
عضاء و زوار منتدانا الكرام ندعوكم لزيارة موقعنا الجديد http://www.info-lak.com حيت ستجدون كل ما تحتاجون اليه ان شاء الله.و ان كنت ملم بوضع المواضيع فمرحبا بك مشرفا معنا كما اننا وضعنا استراتيجية لتربح المال من مواضيعك بعيدا عن انانية المواقع العربية التي تستغل الاعضاء ابشع استغلال . للمزيد من المعلومات haf_-net@hotmail.com

إرسال موضوع جديد   إرسال مساهمة في موضوعشاطر | 
 

 الجزئ I . II .III من الفيلم الرائع Undisputed مع ملفات الترجمة

استعرض الموضوع السابق استعرض الموضوع التالي اذهب الى الأسفل 
كاتب الموضوعرسالة
Admin
Admin


عدد المساهمات : 332
تاريخ التسجيل : 21/03/2013

مُساهمةموضوع: الجزئ I . II .III من الفيلم الرائع Undisputed مع ملفات الترجمة   الجمعة يونيو 07, 2013 11:33 am

الجزئ الاول لفلم Undisputed
=================

=================
فيلم قتال رائع لن تمل من مشاهدته حتى 200 مرة

Undisputed.2002.720p.BluRay.x264
FILM.GENRE.....: Action | Crime | Drama
RUN.TIME.......: 93 mins 38 seconds
FRAME.RATE.....: 23.976 fps
BIT.RATE.......: 5 172 Kbps
RESOLUTION.....: 1280 x 542
AUDIO..........: DTS 5.1 48.0 KHz 1 536 Kbps English

=================
حمل ملف التورنت Size: 4.37 GB



حمل ملف الترجمة



=================
الجزئ الثاني Undisputed II: Last Man Standing

=================

=================
ormat : AVC
Format/Info : Advanced Video Codec
Format profile : Main@L3.1
Format settings, CABAC : Yes
Format settings, ReFrames : 4 frames
Codec ID : avc1
Codec ID/Info : Advanced Video Coding
Duration : 1h 37mn
Bit rate mode : Variable
Bit rate : 1 000 Kbps
Width : 1 280 pixels
Height : 692 pixels
Display aspect ratio : 1.85:1
Frame rate mode : Variable
Frame rate : 23.976 fps
Minimum frame rate : 23.974 fps
Maximum frame rate : 90 000.000 fps
Color space : YUV
Chroma subsampling : 4:2:0
Bit depth : 8 bits
Scan type : Progressive
Bits/(Pixel*Frame) : 0.047
Stream size : 691 MiB (91%)
Writing library : x264 core 120

Audio
ID : 2
Format : AAC
Format/Info : Advanced Audio Codec
Format profile : LC
Codec ID : 40
Duration : 1h 37mn
Bit rate mode : Variable
Bit rate : 96.0 Kbps
Maximum bit rate : 118 Kbps
Channel(s) : 2 channels
Channel positions : Front: L R
Sampling rate : 48.0 KHz
Compression mode : Lossy
Delay relative to video : -83ms
Stream size : 67.0 MiB (9%)
Language : English
=================
حمل ملف التورنت



حمل ملف الترجمة



=================
الجزئ الثالث Undisputed.III.Redemption
=================

=================
BITRATE < 4998 Kbps
VIDEO RESOLUTION < 1280x720
ASPECT < 16:9

FORMAT < DTS
AUDIO BITRATE < 1509 kbps
LANGUAGE < ENGLISH

SUBTITLES < ENGLISH - FRENCH - SPANISH

LENGTH < 96 min

GENRE < Action
================
حمل ملف التورنت



حمل ملف الترجمة




====================
فرجة ممتعة
----------------





++++
الرجوع الى أعلى الصفحة اذهب الى الأسفل
معاينة صفحة البيانات الشخصي للعضو http://skystar.forumaroc.net
 
الجزئ I . II .III من الفيلم الرائع Undisputed مع ملفات الترجمة
استعرض الموضوع السابق استعرض الموضوع التالي الرجوع الى أعلى الصفحة 
صفحة 1 من اصل 1

صلاحيات هذا المنتدى:تستطيع الرد على المواضيع في هذا المنتدى
SKYSTAR ARAB TORRENT :: SKYSTAR FILMS TORRENT :: افلام اجنبية تورنت-
إرسال موضوع جديد   إرسال مساهمة في موضوعانتقل الى: