منتدى التحميل بالتورنت العربي
 
الرئيسيةالرئيسية  افلام اجنبية توافلام اجنبية تو  اليوميةاليومية  س .و .جس .و .ج  بحـثبحـث  قائمة الاعضاءقائمة الاعضاء  المجموعاتالمجموعات  التسجيلالتسجيل  دخولدخول  
عضاء و زوار منتدانا الكرام ندعوكم لزيارة موقعنا الجديد http://www.info-lak.com حيت ستجدون كل ما تحتاجون اليه ان شاء الله.و ان كنت ملم بوضع المواضيع فمرحبا بك مشرفا معنا كما اننا وضعنا استراتيجية لتربح المال من مواضيعك بعيدا عن انانية المواقع العربية التي تستغل الاعضاء ابشع استغلال . للمزيد من المعلومات haf_-net@hotmail.com

إرسال موضوع جديد   إرسال مساهمة في موضوعشاطر | 
 

 فيلم Jack the Giant Slayer مع ملف الترجمة

استعرض الموضوع السابق استعرض الموضوع التالي اذهب الى الأسفل 
كاتب الموضوعرسالة
Admin
Admin


عدد المساهمات : 332
تاريخ التسجيل : 21/03/2013

مُساهمةموضوع: فيلم Jack the Giant Slayer مع ملف الترجمة   الجمعة يونيو 07, 2013 11:57 am

فيلم Jack the Giant Slayer
================

================
The ancient war between humans and a race of giants is reignited when Jack, a young farmhand fighting for a kingdom and the love of a princess, opens a gateway between the two worlds.



Director:
Bryan Singer

Writers:
Darren Lemke (screenplay), Christopher McQuarrie (screenplay)

Stars:
Nicholas Hoult, Ewan McGregor, Stanley Tucci

Genres:
Adventure | Fantasy

Country:
USA

Language:
English





Format : AVI
Format/Info : Audio Video Interleave
Format profile : OpenDML
File size : 698 MiB
Duration : 1h 54mn
Overall bit rate : 854 Kbps
Writing application : AVI-Mux GUI 1.16.11, Dec 15 2004 14:51:34

Video
ID : 0
Format : MPEG-4 Visual
Format profile : Advanced Simple@L5
Format settings, BVOP : No
Format settings, QPel : No
Format settings, GMC : No warppoints
Format settings, Matrix : Default (H.263)
Codec ID : XVID
Codec ID/Hint : XviD
Duration : 1h 54mn
Bit rate : 718 Kbps
Width : 640 pixels
Height : 272 pixels
Display aspect ratio : 2.35:1
Frame rate : 23.976 fps
Color space : YUV
Chroma subsampling : 4:2:0
Bit depth : 8 bits
Scan type : Progressive
Compression mode : Lossy
Bits/(Pixel*Frame) : 0.172
Stream size : 587 MiB (84%)
Writing library : XviD 1.2.1 (UTC 2008-12-04)

Audio
ID : 1
Format : MPEG Audio
Format version : Version 1
Format profile : Layer 3
Mode : Joint stereo
Mode extension : MS Stereo
Codec ID : 55
Codec ID/Hint : MP3
Duration : 1h 54mn
Bit rate mode : Constant
Bit rate : 128 Kbps
Channel(s) : 2 channels
Sampling rate : 44.1 KHz
Compression mode : Lossy
Stream size : 105 MiB (15%)
Alignment : Aligned on interleaves
Interleave, duration : 26 ms (0.63 video frame)
Interleave, preload duration : 182 ms
Title : English - 3LT0N
Writing library : LAME3.92
===============
حمل ملف التورنت Size: 698.31 MB



حمل ملف التورنت =1080p.BluRay.x264 = Size: 7.65 GB=



حمل ملف التورنت = 720p.BluRay.x264 = Size: 5.46 GB =



حمل ملف الترجمة الترجمة متوافقة مع جميع النسخ اعلاه



==============
فرجة ممتعة
---------------

الرجوع الى أعلى الصفحة اذهب الى الأسفل
معاينة صفحة البيانات الشخصي للعضو http://skystar.forumaroc.net
 
فيلم Jack the Giant Slayer مع ملف الترجمة
استعرض الموضوع السابق استعرض الموضوع التالي الرجوع الى أعلى الصفحة 
صفحة 1 من اصل 1
 مواضيع مماثلة
-
» النحل الأسيوي العملاق Giant Bees ,,,
» ميزة بعض الورق ونقاط ضعفها

صلاحيات هذا المنتدى:تستطيع الرد على المواضيع في هذا المنتدى
SKYSTAR ARAB TORRENT :: SKYSTAR FILMS TORRENT :: افلام اجنبية تورنت-
إرسال موضوع جديد   إرسال مساهمة في موضوعانتقل الى: